DownTS
...Dobrodosli na DownTS forum...
Molimo vas prijavite se, a ako nemate account registrujte se.


...programi, filmovi 300mb, igrice, slike, muzika...
 
PrijemKalendarRegistruj sePristupi
Traži
 
 

Rezultati od :
 
Rechercher Napredna potraga
Navigacija
 Portal
 Indeks
 Lista članova
 Profil
 FAQ - Često Postavljana Pitanja
 Traži
Zadnje teme
» Pevaj Brate (2010) DVDRip
Ned 07 Okt 2012, 9:55 pm od quovadis

» Burnout Paradise Full PC
Uto 19 Jun 2012, 11:52 pm od djodjo

» The Expendables (2010) + prevod
Čet 23 Feb 2012, 2:26 am od zrbrka

» DriverMax PRO 5.6
Sub 18 Feb 2012, 1:39 am od ziravuk

» Sherlock Holmes A Game Of Shadows (2011) CAM 400MB - 1link
Uto 10 Jan 2012, 12:31 pm od fantom92

» The Tourist[2010]DvDrip - 1link
Uto 10 Jan 2012, 2:39 am od fantom92

» The Dilemma 2011 BDRip
Uto 10 Jan 2012, 2:30 am od fantom92

» NEW KIDS TURBO (2011)
Uto 10 Jan 2012, 2:26 am od fantom92

» Red (2010) DvDrip-aXXo + prevod
Pon 09 Jan 2012, 1:51 pm od fantom92


Delite | 
 

 No Strings Attached [2011] TS XViD

Ići dole 
AutorPoruka
fantom92

avatar

Broj poruka : 617
Datum upisa : 05.01.2010
Godina : 25

PočaljiNaslov: No Strings Attached [2011] TS XViD   Sre 06 Apr 2011, 5:24 pm

No Strings Attached [2011] TS XViD

Kod:

No Strings Attached 2011 TS XViD - IMAGINE
********************************************************************************************************************

Ripper ...........:IMAGiNE IMDB Rating.......:6.1/10
Video Codec.......:XVID Release Date......:18/02/11
Audio Codec.......:MP3 Theatre Date......:21/01/11
Audio Bitrate.....:128 Runtime...........:1h 38mn
Subtitles.........:NIL Language..........:ENGLISH
Resolution........:688 x 384 IMDb URL..........:http://www.imdb.com/title/tt1411238/
DETAILS:

Video
ID : 0
Format : MPEG-4 Visual
Format profile : Advanced Simple@L5
Format settings, BVOP : Yes
Format settings, QPel : No
Format settings, GMC : No warppoints
Format settings, Matrix : Default (MPEG)
Muxing mode : Packed bitstream
Codec ID : XVID
Codec ID/Hint : XviD
Duration : 1h 38mn
Bit rate : 1 864 Kbps
Width : 688 pixels
Height : 384 pixels
Display aspect ratio : 16:9
Frame rate : 25.000 fps
Color space : YUV
Chroma subsampling : 4:2:0
Bit depth : 8 bits
Scan type : Progressive
Bits/(Pixel*Frame) : 0.282
Stream size : 1.28 GiB (93%)
Writing library : XviD 61

Audio
ID : 1
Format : MPEG Audio
Format version : Version 1
Format profile : Layer 3
Codec ID : 55
Codec ID/Hint : MP3
Duration : 1h 38mn
Bit rate mode : Constant
Bit rate : 128 Kbps
Channel(s) : 2 channels
Sampling rate : 44.1 KHz
Stream size : 90.4 MiB (6%)
Alignment : Split accross interleaves
Interleave, duration : 40 ms (1.00 video frame)
Interleave, preload duration : 500 ms

SOURCES:

VIDEO: Jailbait... Thanks
AUDIO: Thanks matey... Thanks

NOTES:

IMAGiNE bringing you another release.......... No Strings Attached 2010

Here we are with our encode for you all.video is nice and thanks again Jailbait .We made
a small script to brighten it up and alter the contrast....also changed the rgb colours
and added some sharpeness.With the audio it was a pain to sync but we got there now it was just
a case of muxing the audio back to our encode...





Fileserve:
Kod:

http://www.fileserve.com/file/SbDmuBe

Duckload:
Kod:

http://www.duckload.com/dl/4IxQ2

Filesonic:
Kod:

http://www.filesonic.com/file/517140851/No--Strings---Attached--2011-CAM.part1.rar
http://www.filesonic.com/file/517140841/No--Strings---Attached--2011-CAM.part2.rar
http://www.filesonic.com/file/517140831/No--Strings---Attached--2011-CAM.part3.rar
http://www.filesonic.com/file/517112521/No--Strings---Attached--2011-CAM.part4.rar
Nazad na vrh Ići dole
 
No Strings Attached [2011] TS XViD
Nazad na vrh 
Strana 1 od 1
 Similar topics
-
» Hunter x Hunter 2011

Dozvole ovog foruma:Ne možete odgovarati na teme u ovom forumu
DownTS :: Filmovi i Serije :: Strani filmovi-
Skoči na: