DownTS
...Dobrodosli na DownTS forum...
Molimo vas prijavite se, a ako nemate account registrujte se.


...programi, filmovi 300mb, igrice, slike, muzika...
 
PrijemKalendarRegistruj sePristupi
Traži
 
 

Rezultati od :
 
Rechercher Napredna potraga
Navigacija
 Portal
 Indeks
 Lista članova
 Profil
 FAQ - Često Postavljana Pitanja
 Traži
Zadnje teme
» Pevaj Brate (2010) DVDRip
Ned 07 Okt 2012, 9:55 pm od quovadis

» Burnout Paradise Full PC
Uto 19 Jun 2012, 11:52 pm od djodjo

» The Expendables (2010) + prevod
Čet 23 Feb 2012, 2:26 am od zrbrka

» DriverMax PRO 5.6
Sub 18 Feb 2012, 1:39 am od ziravuk

» Sherlock Holmes A Game Of Shadows (2011) CAM 400MB - 1link
Uto 10 Jan 2012, 12:31 pm od fantom92

» The Tourist[2010]DvDrip - 1link
Uto 10 Jan 2012, 2:39 am od fantom92

» The Dilemma 2011 BDRip
Uto 10 Jan 2012, 2:30 am od fantom92

» NEW KIDS TURBO (2011)
Uto 10 Jan 2012, 2:26 am od fantom92

» Red (2010) DvDrip-aXXo + prevod
Pon 09 Jan 2012, 1:51 pm od fantom92


Delite | 
 

 Gullivers Travels (2010) DVDRip XviD FANTOM

Ići dole 
AutorPoruka
fantom92

avatar

Broj poruka : 617
Datum upisa : 05.01.2010
Godina : 25

PočaljiNaslov: Gullivers Travels (2010) DVDRip XviD FANTOM   Sre 06 Apr 2011, 4:25 pm

Gullivers Travels (2010) DVDRip XviD FANTOM



Kod:
Gullivers.Travels.2010.DVDRiP.XViD.AC3.NiTR0
 
Source: R1 NTSC DVD9
Runtime: 95 min
Genre: Comedy
Audio: English 5.1
Subtitles: None
IMDB: http://www.imdb.com/title/tt1320261/
 
General
Complete name                    : Gulivers.Travels.2010.DVDRiP.XViD.AC3.NiTR0.avi
Format                          : AVI
Format/Info                      : Audio Video Interleave
Format profile                  : OpenDML
Format settings                  : rec
File size                        : 1.36 GiB
Duration                        : 1h 21mn
Overall bit rate                : 2 404 Kbps
 
Video
Format                          : MPEG-4 Visual
Format profile                  : Advanced Simple@L5
Format settings, BVOP            : 2
Format settings, QPel            : No
Format settings, GMC            : No warppoints
Format settings, Matrix          : Default (H.263)
Muxing mode                      : Packed bitstream
Codec ID                        : XVID
Duration                        : 1h 21mn
Bit rate                        : 1 951 Kbps
Width                            : 720 pixels
Height                          : 304 pixels
Display aspect ratio            : 2.35:1
Frame rate                      : 25.000 fps
Scan type                        : Progressive
Stream size                      : 1.11 GiB (81%)
 
Audio
Format                          : AC-3
Format/Info                      : Audio Coding 3
Mode extension                  : CM (complete main)
Duration                        : 1h 21mn
Bit rate mode                    : Constant
Bit rate                        : 448 Kbps
Channel(s)                      : 6 channels
Channel positions                : Front: L C R, Side: L R, LFE
Sampling rate                    : 48.0 KHz
Bit depth                        : 16 bits
Stream size                      : 260 MiB (19%)



Download:

Fileserve:
Kod:

http://www.fileserve.com/file/6HgdX4S



Nazad na vrh Ići dole
 
Gullivers Travels (2010) DVDRip XviD FANTOM
Nazad na vrh 
Strana 1 od 1

Dozvole ovog foruma:Ne možete odgovarati na teme u ovom forumu
DownTS :: Filmovi i Serije :: Strani filmovi-
Skoči na: