DownTS
...Dobrodosli na DownTS forum...
Molimo vas prijavite se, a ako nemate account registrujte se.


...programi, filmovi 300mb, igrice, slike, muzika...
 
PrijemKalendarRegistruj sePristupi
Traži
 
 

Rezultati od :
 
Rechercher Napredna potraga
Navigacija
 Portal
 Indeks
 Lista članova
 Profil
 FAQ - Često Postavljana Pitanja
 Traži
Zadnje teme
» Pevaj Brate (2010) DVDRip
Ned 07 Okt 2012, 9:55 pm od quovadis

» Burnout Paradise Full PC
Uto 19 Jun 2012, 11:52 pm od djodjo

» The Expendables (2010) + prevod
Čet 23 Feb 2012, 2:26 am od zrbrka

» DriverMax PRO 5.6
Sub 18 Feb 2012, 1:39 am od ziravuk

» Sherlock Holmes A Game Of Shadows (2011) CAM 400MB - 1link
Uto 10 Jan 2012, 12:31 pm od fantom92

» The Tourist[2010]DvDrip - 1link
Uto 10 Jan 2012, 2:39 am od fantom92

» The Dilemma 2011 BDRip
Uto 10 Jan 2012, 2:30 am od fantom92

» NEW KIDS TURBO (2011)
Uto 10 Jan 2012, 2:26 am od fantom92

» Red (2010) DvDrip-aXXo + prevod
Pon 09 Jan 2012, 1:51 pm od fantom92


Delite | 
 

 For Colored Girls 2010 DVDRip

Ići dole 
AutorPoruka
fantom92

avatar

Broj poruka : 617
Datum upisa : 05.01.2010
Godina : 25

PočaljiNaslov: For Colored Girls 2010 DVDRip   Sre 06 Apr 2011, 4:23 pm

For Colored Girls 2010 DVDRip



Kod:
 For Colored Girls 2010 DVDRip

http://www.imdb.com/title/tt1405500 [rate:4.3] 1,658 votes
 


Complete name                    : For Colored Girls 2010 DVDRip
Format                          : AVI
Format/Info                      : Audio Video Interleave
File size                        : 801 MiB
Duration                        : 2h 13mn
Overall bit rate                : 839 Kbps
Writing application              : AVI-Mux GUI 1.17.8.3, Feb 16 201019:42:50
Writing library                  : VirtualDub build 32842/release

Video
Format                          : MPEG-4 Visual
Format profile                  : Advanced Simple@L5
Format settings, BVOP            : 2
Format settings, QPel            : No
Format settings, GMC            : No warppoints
Format settings, Matrix          : Default (H.263)
Codec ID                        : XVID
Codec ID/Hint                    : XviD
Duration                        : 2h 13mn
Bit rate                        : 731 Kbps
Width                            : 608 pixels
Height                          : 336 pixels
Display aspect ratio            : 16:9
Frame rate                      : 23.976 fps
Color space                      : YUV
Chroma subsampling              : 4:2:0
Bit depth                        : 8 bits
Scan type                        : Progressive
Compression mode                : Lossy
Bits/(Pixel*Frame)              : 0.149
Stream size                      : 699 MiB (87%)
Writing library                  : XviD 1.2.1 (UTC 2008-12-04)

Audio
Format                          : MPEG Audio
Format version                  : Version 1
Format profile                  : Layer 3
Mode                            : Joint stereo
Mode extension                  : MS Stereo
Codec ID                        : 55
Codec ID/Hint                    : MP3
Duration                        : 2h 13mn
Bit rate mode                    : Variable
Bit rate                        : 95.9 Kbps
Nominal bit rate                : 105 Kbps
Channel(s)                      : 2 channels
Sampling rate                    : 44.1 KHz
Compression mode                : Lossy
Stream size                      : 91.6 MiB (11%)
Alignment                        : Aligned on interleaves
Interleave, duration            : 26 ms (0.63 video frame)
Interleave, preload duration    : 214 ms
Writing library                  : LAME3.98r
Encoding settings                : -m j -V 4 -q 2 -lowpass 15.6 --abr 105









Fileserve:
Kod:

http://www.fileserve.com/file/dfTFRsz
Nazad na vrh Ići dole
 
For Colored Girls 2010 DVDRip
Nazad na vrh 
Strana 1 od 1

Dozvole ovog foruma:Ne možete odgovarati na teme u ovom forumu
DownTS :: Filmovi i Serije :: Strani filmovi-
Skoči na: